Pererin - Teithgan 1981

Перейти вниз

Pererin - Teithgan 1981

Сообщение  kirill-purple в Чт Май 12, 2011 9:50 pm

Pererin - Teithgan 1981



Awesome second longplayer by Welsh psychedelic folk-rockers Pererin. Traditional Welsh folk meets rock with psychedelic guitar leads, flute, male/female vocals... This was originally released in 1981 on the Gwerin label and for many it is their best work, and it's definitely its rarest one. Exact repro of the original, including the insert. Definitely one of the best albums of the genre, another superb rarity brought to you with a legit reissue by Guerssen.
(green-brain-krautrock.de)

Страна: UK
Жанр: Progressive-folk Rock
Информация о релизе: CD Guerssen Records (GUESSCD004/GUPENCD003)
Формат: Flac (image+cue+log+scans)
Продолжительность: 40:03
Размер архива: 195mb(+3%recover)
Источник: my CD

Songs / Tracks Listing

1. Y Drws (Hearts Door) (4:16)
2. Y Gwr O Gefn Birth (The Man from Cefn Brith) (4:20)
3. Ddoi Di Dei (Will you come Dai) (3:40)
4. Draw Dros Y Bryniau (Far over the hills) (4:02)
5. Mae Nghariad in Fenws (My Love) (3:52)
6. Symffoni Lawen (Joyful Symphony) (3:02)
7. Teithgan (Journey) (5:25)
8. Ble'r Wyt Ti'n Myned (Where are you going my Fair Maid) (4:43)
9. Diferion (A Few Trickles) (1:30)
10. Mynydd Parys (Pary's Mountain) (5:13)


Line-up / Musicians

- Arfon Wyn ab Eurig / acoustic guitars, vocals
- Charli Goodall / acoustic and electric guitars, vocals
- Einion Williams / bodhran, congas
- Aneurin Owen / flute, keyboards, backing vocals
- Lilo Haf / flute, keyboards, backing vocals

Спойлер:
Exact Audio Copy V0.99 prebeta 4 from 23. January 2008

Отчёт EAC об извлечении, выполненном 12. мая 2011, 16:33

Pererin / Teithgan

Дисковод: ASUS DRW-24B1ST Adapter: 3 ID: 0

Режим чтения : Достоверность
Использование точного потока : Да
Отключение кэша аудио : Да
Использование указателей C2 : Нет

Коррекция смещения при чтении : 6
Способность читать области Lead-in и Lead-out : Нет
Заполнение пропущенных сэмплов тишиной : Да
Удаление блоков с тишиной в начале и конце : Нет
При вычислениях CRC использовались нулевые сэмплы : Да
Интерфейс : Встроенный Win32-интерфейс для Win NT/2000

Выходной формат : Пользовательский кодировщик
Выбранный битрейт : 768 kBit/s
Качество : Высокий
Добавление ID3-тэга : Нет
Утилита сжатия : C:\Program Files\Exact Audio Copy\FLAC\FLAC.EXE
Дополнительные параметры : -6 -V -T "ARTIST=%a" -T "TITLE=%t" -T "ALBUM=%g" -T "DATE=%y" -T "TRACKNUMBER=%n" -T "GENRE=%m" -T "COMMENT=%e" %s -o %d


TOC извлечённого CD

Трек | Старт | Длительность | Начальный сектор | Конечный сектор
---------------------------------------------------------------------
1 | 0:00.00 | 4:16.17 | 0 | 19216
2 | 4:16.17 | 4:20.53 | 19217 | 38769
3 | 8:36.70 | 3:40.12 | 38770 | 55281
4 | 12:17.07 | 4:02.65 | 55282 | 73496
5 | 16:19.72 | 3:52.60 | 73497 | 90956
6 | 20:12.57 | 3:02.18 | 90957 | 104624
7 | 23:15.00 | 5:25.27 | 104625 | 129026
8 | 28:40.27 | 4:43.58 | 129027 | 150309
9 | 33:24.10 | 1:30.70 | 150310 | 157129
10 | 34:55.05 | 5:13.50 | 157130 | 180654


Характеристики диапазона извлечения и сообщения об ошибках

Выбранный диапазон

Имя файла C:\Torrent\purple\Pererin - Teithgan.wav

Пиковый уровень 99.9 %
Качество диапазона 100.0 %
CRC теста 5B046C6F
CRC копии 5B046C6F
Копирование... OK

Ошибок не произошло


AccurateRip: сводка

Трек 1 точное извлечение (доверие 2) [68578516]
Трек 2 точное извлечение (доверие 2) [078C71A5]
Трек 3 точное извлечение (доверие 2) [C953D404]
Трек 4 точное извлечение (доверие 2) [F29A1F8D]
Трек 5 точное извлечение (доверие 2) [0E682D1E]
Трек 6 точное извлечение (доверие 2) [DE2370DF]
Трек 7 точное извлечение (доверие 2) [E0D9617E]
Трек 8 точное извлечение (доверие 2) [2F80B565]
Трек 9 точное извлечение (доверие 2) [5C1AD1F9]
Трек 10 точное извлечение (доверие 2) [42573315]

Все треки извлечены точно

Конец отчёта
megaupload.com A0B768PW

http://narod.ru/disk/12683578001/Per-Teit.rar.html
avatar
kirill-purple

Сообщения : 63
Дата регистрации : 2010-10-14

Вернуться к началу Перейти вниз

Re: Pererin - Teithgan 1981

Сообщение  Музфан в Пт Май 13, 2011 12:22 am

Интересно...Пока неведемое, но будем знакомиться с командой.)))
С уважением.
avatar
Музфан

Сообщения : 163
Дата регистрации : 2010-12-30
Возраст : 60
Откуда : Татарстан

Вернуться к началу Перейти вниз

Вернуться к началу


 
Права доступа к этому форуму:
Вы не можете отвечать на сообщения