Jackie McAuley - Bad Day At Black Rock(2000/AND)

Перейти вниз

Jackie McAuley - Bad Day At Black Rock(2000/AND)

Сообщение  kirill-purple в Пт Мар 11, 2011 8:00 pm

Jackie McAuley - Bad Day At Black Rock(2000/AND)



A beautiful solo collection of acoustic folk and blues from ex-Them and Poormouth frontman Jackie McAuley

Страна: UK
Жанр: acoustic folk/blues
Информация о релизе: CD 2000 A New Day records (AND CD39)
Формат: Flac(image+cue+log+scans)
Продолжительность: 43:28
Размер архива: 278mb(+5%recover)
Источник my CD

Tracks
1. Dynamite Town
2. Your Love Flies
3. Ride The Peace Train
4. Bad Day At Black Rock
5. New York Calling
6. A Song For Gordon
7. You're The Pretty One
8. How Could We End Up Here?
9. Crossroads Blues
10. Robert Stroud's Blues


Personnel
Jackie McAuley - vocals,guitar,mandola,octave mandola mandocello,resonator guitar,sticks and footstomps
Esther Hackett - accordion


Спойлер:
Exact Audio Copy V0.99 prebeta 4 from 23. January 2008

Отчёт EAC об извлечении, выполненном 11. марта 2011, 13:52

Jackie McAuley / Bad Day at Black Rock

Дисковод: ASUS DRW-24B1ST Adapter: 3 ID: 0

Режим чтения : Достоверность
Использование точного потока : Да
Отключение кэша аудио : Да
Использование указателей C2 : Нет

Коррекция смещения при чтении : 6
Способность читать области Lead-in и Lead-out : Нет
Заполнение пропущенных сэмплов тишиной : Да
Удаление блоков с тишиной в начале и конце : Нет
При вычислениях CRC использовались нулевые сэмплы : Да
Интерфейс : Встроенный Win32-интерфейс для Win NT/2000

Выходной формат : Пользовательский кодировщик
Выбранный битрейт : 768 kBit/s
Качество : Высокий
Добавление ID3-тэга : Нет
Утилита сжатия : C:\Program Files\Exact Audio Copy\FLAC\FLAC.EXE
Дополнительные параметры : -6 -V -T "ARTIST=%a" -T "TITLE=%t" -T "ALBUM=%g" -T "DATE=%y" -T "TRACKNUMBER=%n" -T "GENRE=%m" -T "COMMENT=%e" %s -o %d


TOC извлечённого CD

Трек | Старт | Длительность | Начальный сектор | Конечный сектор
---------------------------------------------------------------------
1 | 0:00.00 | 5:10.05 | 0 | 23254
2 | 5:10.05 | 3:57.11 | 23255 | 41040
3 | 9:07.16 | 4:59.48 | 41041 | 63513
4 | 14:06.64 | 2:37.71 | 63514 | 75359
5 | 16:44.60 | 4:46.55 | 75360 | 96864
6 | 21:31.40 | 3:11.47 | 96865 | 111236
7 | 24:43.12 | 3:36.66 | 111237 | 127502
8 | 28:20.03 | 4:36.44 | 127503 | 148246
9 | 32:56.47 | 4:53.57 | 148247 | 170278
10 | 37:50.29 | 5:38.00 | 170279 | 195628


Характеристики диапазона извлечения и сообщения об ошибках

Выбранный диапазон

Имя файла C:\Torrent\purple\Jackie McAuley - Bad Day at Black Rock.wav

Пиковый уровень 96.6 %
Качество диапазона 99.9 %
CRC теста 4EF5676C
CRC копии 4EF5676C
Копирование... OK

Ошибок не произошло


AccurateRip: сводка

Трек 1 нет в базе данных
Трек 2 нет в базе данных
Трек 3 нет в базе данных
Трек 4 нет в базе данных
Трек 5 нет в базе данных
Трек 6 нет в базе данных
Трек 7 нет в базе данных
Трек 8 нет в базе данных
Трек 9 нет в базе данных
Трек 10 нет в базе данных

Ни одного трека нет в базе AccurateRip

Конец отчёта

http://narod.ru/disk/7265919001/JMc-BDABR.rar.html

megaupload.com ATCLRMIX
avatar
kirill-purple

Сообщения : 63
Дата регистрации : 2010-10-14

Вернуться к началу Перейти вниз

Вернуться к началу


 
Права доступа к этому форуму:
Вы не можете отвечать на сообщения