Wynder K. Frog - Into The Fire (1970)

Перейти вниз

Wynder K. Frog - Into The Fire (1970)

Сообщение  kirill-purple в Вс Мар 06, 2011 3:52 am

Wynder K. Frog - Into The Fire (1970)



English band in the progressive jazz field. Lots of horns and distant organ harmonies, guiutars, and really for fans of IF and maybe GRAHAM BOND, KEEF HARTLEY BAND.
Jazz-rock organ sounds from the late 60s by this UK band who were possibly the most enduring club-organ r'n'b band to come from the swinging 60's mod scene.This(mostly) instrumental powerhouse outfit delivered this their 2nd album from 1969 of original material 'Composed specifically for the Frog style of musical interpretation, ranging far in beat, tempo and mood'. Contains the brilliant "Eddie's Tune" that could have graced the Rubble series.

Страна: UK
Жанр: jazz rock/prog related
Информация о релизе: CD 2004 Walhalla Records (WH 90340)
Формат: Flac (image+cue+log+scans)
Продолжительность: 38:29
Размер архива: 273mb(+3%recover)

Треклист:

01 Into The Fire 04:09
02 How'l In Wolf's Clothing 03:27
03 F In Blues 05:43
04 Cool Hand Stanley 05:39
05 Eddie's Tune 05:27
06 Why Am Treated So Ba 05:01
07 Hot Salt Beef 04:53
08 Warm And Tender Love 04:06



Состав:

Mick Weaver-Keyboards
Rocky Dzidzornu-Percussion
Neil Hubbard-Guitar
Chris Mercer-Saxophone
Shawn Phillips-Guitar and Vocals
Bruce Rowland -Drums
Alan Spenner-Bass


Спойлер:
Exact Audio Copy V0.99 prebeta 4 from 23. January 2008

Отчёт EAC об извлечении, выполненном 5. марта 2011, 21:23

Wynder K. Frog / Into The Fire

Дисковод: ASUS DRW-24B1ST Adapter: 3 ID: 0

Режим чтения : Достоверность
Использование точного потока : Да
Отключение кэша аудио : Да
Использование указателей C2 : Нет

Коррекция смещения при чтении : 6
Способность читать области Lead-in и Lead-out : Нет
Заполнение пропущенных сэмплов тишиной : Да
Удаление блоков с тишиной в начале и конце : Нет
При вычислениях CRC использовались нулевые сэмплы : Да
Интерфейс : Встроенный Win32-интерфейс для Win NT/2000

Выходной формат : Пользовательский кодировщик
Выбранный битрейт : 768 kBit/s
Качество : Высокий
Добавление ID3-тэга : Нет
Утилита сжатия : C:\Program Files\Exact Audio Copy\FLAC\FLAC.EXE
Дополнительные параметры : -6 -V -T "ARTIST=%a" -T "TITLE=%t" -T "ALBUM=%g" -T "DATE=%y" -T "TRACKNUMBER=%n" -T "GENRE=%m" -T "COMMENT=%e" %s -o %d


TOC извлечённого CD

Трек | Старт | Длительность | Начальный сектор | Конечный сектор
---------------------------------------------------------------------
1 | 0:00.00 | 4:09.65 | 0 | 18739
2 | 4:09.65 | 3:27.47 | 18740 | 34311
3 | 7:37.37 | 5:43.01 | 34312 | 60037
4 | 13:20.38 | 5:39.69 | 60038 | 85531
5 | 19:00.32 | 5:27.01 | 85532 | 110057
6 | 24:27.33 | 5:01.65 | 110058 | 132697
7 | 29:29.23 | 4:53.63 | 132698 | 154735
8 | 34:23.11 | 4:06.39 | 154736 | 173224


Характеристики диапазона извлечения и сообщения об ошибках

Выбранный диапазон

Имя файла C:\Torrent\purple\Wynder K. Frog - Into The Fire.wav

Пиковый уровень 99.9 %
Качество диапазона 100.0 %
CRC теста 76C0CDC0
CRC копии 76C0CDC0
Копирование... OK

Ошибок не произошло


AccurateRip: сводка

Трек 1 нет в базе данных
Трек 2 нет в базе данных
Трек 3 нет в базе данных
Трек 4 нет в базе данных
Трек 5 нет в базе данных
Трек 6 нет в базе данных
Трек 7 нет в базе данных
Трек 8 нет в базе данных

Ни одного трека нет в базе AccurateRip

Конец отчёта
http://narod.ru/disk/6891843001/WyKFr.rar.html

megaupload.com X1YUICO3
avatar
kirill-purple

Сообщения : 63
Дата регистрации : 2010-10-14

Вернуться к началу Перейти вниз

Re: Wynder K. Frog - Into The Fire (1970)

Сообщение  hiped в Пн Мар 07, 2011 5:52 pm

Спасибо, Игорь! В моем вкусе штука!
avatar
hiped
Admin

Сообщения : 224
Дата регистрации : 2009-12-02

Вернуться к началу Перейти вниз

Re: Wynder K. Frog - Into The Fire (1970)

Сообщение  JonLord в Пн Мар 07, 2011 8:44 pm

Игорь, и от меня Спасибо
avatar
JonLord

Сообщения : 17
Дата регистрации : 2010-10-14
Возраст : 57

Вернуться к началу Перейти вниз

Re: Wynder K. Frog - Into The Fire (1970)

Сообщение  kirill-purple в Вт Мар 08, 2011 1:23 am

Пожалуйста,ребята!
avatar
kirill-purple

Сообщения : 63
Дата регистрации : 2010-10-14

Вернуться к началу Перейти вниз

Re: Wynder K. Frog - Into The Fire (1970)

Сообщение  olaf_alien в Вт Мар 08, 2011 6:52 am

Классный альбом! Спасибо!!
avatar
olaf_alien
Admin

Сообщения : 286
Дата регистрации : 2009-12-08

Вернуться к началу Перейти вниз

Re: Wynder K. Frog - Into The Fire (1970)

Сообщение  Спонсируемый контент


Спонсируемый контент


Вернуться к началу Перейти вниз

Вернуться к началу


 
Права доступа к этому форуму:
Вы не можете отвечать на сообщения