Jumble Lane - Jumble Lane 1970/71

Перейти вниз

Jumble Lane - Jumble Lane 1970/71

Сообщение  kirill-purple в Сб Фев 26, 2011 4:02 am

Jumble Lane - Jumble Lane 1970/71



Originally released on the fabled Holyground label - and recorded in 1971 by students who later went on to work with Bill Nelson and other Holyground acts - only 99 copies of this album were made. Consequently this reissue will be much sought after by collectors. Mixing elements of folk and jazz into a progressive and sometime psychedelic stew, this is an interesting release that lives up to its reputation.

Страна: UK
Жанр: psychedelic/folk rock
Информация о релизе: CD 1993 Background Records (HBG 123/3)
Формат: Flac (image+cue+log+scans)
Продолжительность: 42:31
Размер архива: 195mb(+3%recover)
Источник: my CD

Tracks/Personnel:
01. Prelude In D Minor/Allemande (Bach/Dowland)
Rich Freeman - guitar
02. Girl From Gothenburg (Snell)
Nick Dew - drums/Liam Arthurs - bass/Martin Snell - piano
03. Flutelode (Byford)
Nick Dew - drums/Liam Arthurs - bass/Martin Snell - piano/Biff Byford - flute
04. Blues For Joanne (Jerrom)
Ric Jerrom - vocals&guitar/steve Channing - lead guitar/Liam Arthurs - bass/Martin Snell - american organ
05. Five In A Van (Snell/Garfield)
Chris Garfield - lead guitar/Nick Dew - drums/Liam Arthurs - bass/Martin Snell - piano
06. Red Hot Daddy (Reprise)
07. Frustration/Ends Away! (Snell/Arthurs/Dew/Mann/Garfield/Byford)
Liam Arthurs - vocals7bass/Martin Snell - piano/Nick Mann - guitar/Chris Garfield - lead guitar/Nick Dew - drums/Bill Byford - flute
08. Little Frederique (Channing/Byford/Keys)
Rich Keys - harp/Steve Channing - guitar/Biff Byford - flute
09(a).excerpt from The Shipper (Holland)
Dave Holland - piano/Nick Dew - drums/John Millington - lead guitar/Rob Clark - bass/Ric Jerrom - vocal
09(b). Rock Me Babe (Melvin Jackson,arranged Jerrom)
Ric Jerrom - vocal/Howard Wriggley - piano/Mike Brownrigg - lead guitar/Rich Keys - harmonica/Steve Channing - silent slide guitar
Rob Rutterford - mouth-harp
10(a). Organics (Snell/Arthurs/Dew)
Nick Dew - drums/Liam Arthurs - bass/Martin Snell - piano
10(b). Red Hot Daddy (Ball)
Ian Ball - vocal,kazoo,mouth trumpet,ukelele/John Davidson - banjo/Graham Heaney - jug&tea-chest bass/Pete Tidball - guitar
Tina Barnes - washboard
11. Gallery (Mitchell)
Marcia - guitar&vocal/Linda King - vocal
12. Preserve (Snell/Channing/Dew/Arthurs/Byford/Keys)
Rich Keys - harp/Steve Channing - guitar/Nick Dew - drums/Biff Byford - flute/Liam Arthurs - bass/Martin Snell - piano
13. Train Ago Last Saturday (Jerrom)
Rick Jerrom - vocal/Martin Snell - piano/Steve Channing,Nick Dew - drums

Спойлер:
Exact Audio Copy V0.99 prebeta 4 from 23. January 2008

Отчёт EAC об извлечении, выполненном 25. февраля 2011, 19:59

Jumble Lane / Jumble Lane

Дисковод: ASUS DRW-24B1ST Adapter: 3 ID: 0

Режим чтения : Достоверность
Использование точного потока : Да
Отключение кэша аудио : Да
Использование указателей C2 : Нет

Коррекция смещения при чтении : 6
Способность читать области Lead-in и Lead-out : Нет
Заполнение пропущенных сэмплов тишиной : Да
Удаление блоков с тишиной в начале и конце : Нет
При вычислениях CRC использовались нулевые сэмплы : Да
Интерфейс : Встроенный Win32-интерфейс для Win NT/2000

Выходной формат : Пользовательский кодировщик
Выбранный битрейт : 768 kBit/s
Качество : Высокий
Добавление ID3-тэга : Нет
Утилита сжатия : C:\Program Files\Exact Audio Copy\FLAC\FLAC.EXE
Дополнительные параметры : -6 -V -T "ARTIST=%a" -T "TITLE=%t" -T "ALBUM=%g" -T "DATE=%y" -T "TRACKNUMBER=%n" -T "GENRE=%m" -T "COMMENT=%e" %s -o %d


TOC извлечённого CD

Трек | Старт | Длительность | Начальный сектор | Конечный сектор
---------------------------------------------------------------------
1 | 0:00.33 | 3:15.05 | 33 | 14662
2 | 3:15.38 | 3:55.52 | 14663 | 32339
3 | 7:11.15 | 1:56.20 | 32340 | 41059
4 | 9:07.35 | 2:05.20 | 41060 | 50454
5 | 11:12.55 | 4:14.33 | 50455 | 69537
6 | 15:27.13 | 0:20.47 | 69538 | 71084
7 | 15:47.60 | 5:00.38 | 71085 | 93622
8 | 20:48.23 | 1:38.55 | 93623 | 101027
9 | 22:27.03 | 4:35.35 | 101028 | 121687
10 | 27:02.38 | 3:19.22 | 121688 | 136634
11 | 30:21.60 | 3:37.35 | 136635 | 152944
12 | 33:59.20 | 4:43.40 | 152945 | 174209
13 | 38:42.60 | 3:48.23 | 174210 | 191332


Характеристики диапазона извлечения и сообщения об ошибках

Выбранный диапазон

Имя файла C:\Torrent\purple\Jumble Lane - Jumble Lane.wav

Пиковый уровень 90.4 %
Качество диапазона 100.0 %
CRC теста 4AC34F29
CRC копии 4AC34F29
Копирование... OK

Ошибок не произошло


AccurateRip: сводка

Трек 1 нет в базе данных
Трек 2 нет в базе данных
Трек 3 нет в базе данных
Трек 4 нет в базе данных
Трек 5 нет в базе данных
Трек 6 нет в базе данных
Трек 7 нет в базе данных
Трек 8 нет в базе данных
Трек 9 нет в базе данных
Трек 10 нет в базе данных
Трек 11 нет в базе данных
Трек 12 нет в базе данных
Трек 13 нет в базе данных

Ни одного трека нет в базе AccurateRip

Конец отчёта

megaupload.com R0PRTK2R

http://narod.ru/disk/6373328001/JuLaJuLa.rar.html
avatar
kirill-purple

Сообщения : 63
Дата регистрации : 2010-10-14

Вернуться к началу Перейти вниз

Re: Jumble Lane - Jumble Lane 1970/71

Сообщение  Музфан в Вс Фев 27, 2011 1:01 am

Jumble Lane
Игра на гитаре перебором, что может быть красивее «показывает» первая композиция «Prelude In D Minor Allemande», которая по манере исполнения делится как бы на две части. В первой части исполнение так называемое «ударное», вторая же часть проиграна «щипками». К стати самая интересная и в тоже время трудная манера игры. Композиции «Girl From Gothenburg», «Flutelode» и «Five In A Van». -это незатейливый джаз в манере диксиленда. Легкий и привлекающий. В одной из них, а именно в «Flutelode» красиво сыгрались флейта с басом. Интересное исполнение «Blues For Joanne», «Preserve» и «A Train Ago Last Saturday»» фолк-рок с элементами народной музыки, в манере исполнения Jethro Tull, Композиция «reprise of Red Hot Daddy» в 20 секунд, пробежала, пролетела, т.е. мне непонятна. А вот «Frustration Ends Away» с жутко давящим началом и «excerpt from The Shipper Rock Me Babe» переходящие то в рок с элементами джаза, то в ритм-энд-блюз, трудно недооценить . С темпом и напористо.
С первыми звуками «Little Frederique», создается впечатление, что композиция исполняется совершенно другой группой, с другим жанром и направлением. Гитарный перебор, флейта и нежность губной гармоники. Жизнь вся «розовая»…. Тоже самое и при композиции «Gallery», где в унисон с гитарой звучат нежные женские голоса.
Композиция «Organics Red Hot Daddy» подтверждает правоту выше сказанных слов, по поводу видоизменения стиля группы, так вот сейчас, с некоторым отступлением, звучит прототип Mungo Jerry. Весело и беззаботно.
Общее: Стиль исполнения или вернее жанр данной команды трудно определить. Здесь, как всё: рок-да, этническая музыка-да, джаз-да . Другими словами полный «fusion» — сплав. И вся эта музыкальная красота, всё разнообразие жанров сделано одним исполнителем, одной командой -
Jumble Lane.
Спасибо релизёру Игорю, за знакомство с данной «универсальной» командой.
avatar
Музфан

Сообщения : 163
Дата регистрации : 2010-12-30
Возраст : 60
Откуда : Татарстан

Вернуться к началу Перейти вниз

Вернуться к началу


 
Права доступа к этому форуму:
Вы не можете отвечать на сообщения