Majority One - Rainbow Rockin`Chaur

Перейти вниз

Majority One - Rainbow Rockin`Chaur

Сообщение  kirill-purple в Чт Янв 27, 2011 11:41 pm

Majority One - Rainbow Rockin`Chaur (the definitive collection 1969-71
including because i love and rare material)




RAINBOW ROCKIN' CHAIR is a comprehensive collection of singles and unreleased tracks from 1969 to 1971 by the British psychedelic band Majority One, featuring "Get Back Home."

Most of the songs from Majority One's sole, self-titled album ... Full Descriptionare on this 18-song compilation, filled out with some tracks from non-LP singles (some issued under the names the Majority, Black Label, and Rocky Cabbage), an alternate version of the B-side "Friday Man," and the previously unissued "Letter from the Queen." The material casually resembles the most cotton-candy, daintiest end of the Beatles' late-'60s psych-pop, though only in approach and production, and not in the quality of the actual songs. Though the arrangements bear the hallmarks of much British music of this sort from that period -- underwater-sounding distorted vocals, light orchestration, harpsichords, high harmonies, images of royalty and childhood, blends of hard-charging acoustic and electric guitars, a slight baroque classical flavor, and an overall jovial bounce -- there's not much compelling melodic substance. The uncharacteristically "Get Back Home" sounds a little like the early (but still post-Denny Laine) Moody Blues when they rocked hard, and "Rainbow Rocking Chair" itself sounds like Majority One might have been listening to the airiest and poppiest late-'60s Pink Floyd cuts (а la "Point Me at the Sky"). The two tracks here from early-'70s singles released under the name Rocky Cabbage are actually among the more impressive and mature, "Freedom" showing a power pop muscle to the guitars missing in much of their other recordings, and "Birds Must Learn to Fly" being a pleasant folk-rock ballad reminiscent of the late-'60s Beatles at their most laid-back. The music's still pleasant overall, though it doesn't stand out within its genre, and the liner notes run through the group's career in great detail. ~ Richie Unterberger

Страна: UK
Жанр: Psychedelic Rock
Информация о релизе: CD 2005 RPM Records (RPM 307)
Формат: Flac (image+cue+log+scans)
Продолжительность: 53:03
Размер архива: 364mb(+5%recover)
Источник: my CD

Songs / Tracks Listing

01.Get Back Home
02.A Hard Days Night
03.Friday Man
04.A Cigarette, A Cup of Tea
05.Because I Love
06.Charlotte Rose
07.Rainbow Rocking Chair
08.Depths of My Mind
09.Glass Image
10.Don't Mind the Rain
11.Letter from the Queen
12.I See Her Everywhere
13.Looks Like Rain
14.Love Came Today
15.Feedback
16.No Matter What
17.Freedom
18.Birds Must Learn to Fly

Track 6 as The Majority
Track 16 as Black Label
Track 17-18 as Rocky Cabbage

Спойлер:
Exact Audio Copy V0.99 prebeta 4 from 23. January 2008

Отчёт EAC об извлечении, выполненном 27. января 2011, 15:15

Majority One / Rainbow Rocking Chair

Дисковод: ASUS DRW-24B1ST Adapter: 3 ID: 0

Режим чтения : Достоверность
Использование точного потока : Да
Отключение кэша аудио : Да
Использование указателей C2 : Нет

Коррекция смещения при чтении : 6
Способность читать области Lead-in и Lead-out : Нет
Заполнение пропущенных сэмплов тишиной : Да
Удаление блоков с тишиной в начале и конце : Нет
При вычислениях CRC использовались нулевые сэмплы : Да
Интерфейс : Встроенный Win32-интерфейс для Win NT/2000

Выходной формат : Пользовательский кодировщик
Выбранный битрейт : 768 kBit/s
Качество : Высокий
Добавление ID3-тэга : Нет
Утилита сжатия : C:\Program Files\Exact Audio Copy\FLAC\FLAC.EXE
Дополнительные параметры : -6 -V -T "ARTIST=%a" -T "TITLE=%t" -T "ALBUM=%g" -T "DATE=%y" -T "TRACKNUMBER=%n" -T "GENRE=%m" -T "COMMENT=%e" %s -o %d


TOC извлечённого CD

Трек | Старт | Длительность | Начальный сектор | Конечный сектор
---------------------------------------------------------------------
1 | 0:00.00 | 2:48.16 | 0 | 12615
2 | 2:48.16 | 3:33.45 | 12616 | 28635
3 | 6:21.61 | 3:09.71 | 28636 | 42881
4 | 9:31.57 | 2:49.19 | 42882 | 55575
5 | 12:21.01 | 2:22.66 | 55576 | 66291
6 | 14:43.67 | 2:53.25 | 66292 | 79291
7 | 17:37.17 | 2:25.26 | 79292 | 90192
8 | 20:02.43 | 2:12.42 | 90193 | 100134
9 | 22:15.10 | 2:41.49 | 100135 | 112258
10 | 24:56.59 | 3:31.11 | 112259 | 128094
11 | 28:27.70 | 2:43.59 | 128095 | 140378
12 | 31:11.54 | 2:30.66 | 140379 | 151694
13 | 33:42.45 | 2:49.56 | 151695 | 164425
14 | 36:32.26 | 2:42.58 | 164426 | 176633
15 | 39:15.09 | 3:23.74 | 176634 | 191932
16 | 42:39.08 | 3:00.45 | 191933 | 205477
17 | 45:39.53 | 2:49.38 | 205478 | 218190
18 | 48:29.16 | 4:34.00 | 218191 | 238740


Характеристики диапазона извлечения и сообщения об ошибках

Выбранный диапазон

Имя файла C:\Torrent\purple\Majority One - Rainbow Rocking Chair.wav

Пиковый уровень 96.6 %
Качество диапазона 100.0 %
CRC теста 3CFAC7AB
CRC копии 3CFAC7AB
Копирование... OK

Ошибок не произошло


AccurateRip: сводка

Трек 1 нет в базе данных
Трек 2 нет в базе данных
Трек 3 нет в базе данных
Трек 4 нет в базе данных
Трек 5 нет в базе данных
Трек 6 нет в базе данных
Трек 7 нет в базе данных
Трек 8 нет в базе данных
Трек 9 нет в базе данных
Трек 10 нет в базе данных
Трек 11 нет в базе данных
Трек 12 нет в базе данных
Трек 13 нет в базе данных
Трек 14 нет в базе данных
Трек 15 нет в базе данных
Трек 16 нет в базе данных
Трек 17 нет в базе данных
Трек 18 нет в базе данных

Ни одного трека нет в базе AccurateRip

Конец отчёта



Код:
http://narod.ru/disk/4454575001/MajOn-RRCh.rar.html

http://www.megaupload.com/?d=5CEJ46I0
avatar
kirill-purple

Сообщения : 63
Дата регистрации : 2010-10-14

Вернуться к началу Перейти вниз

Re: Majority One - Rainbow Rockin`Chaur

Сообщение  Музфан в Вс Янв 30, 2011 2:34 am

Очередной шедевр Majority One - Rainbow Rocking Chair
Ошеломляюще, но музыкальный материал очень напоминает ливерпульскую «четвёртку». Весь релиз произвел большое впечатление. Удивительно, тот же вокал, те же ударные, перкуссия, клавишные, ситар. Те же музыкальные направления, те же композиции «на все времена». Сколько теплоты, сколько искренности!
К примеру, известная композиция «Hard Day's Nigh» исполнена очень лирически, с прекрасной раскладкой голосов и распевкой. Сразу не узнаешь.
Здесь не подражание, а именно передача композиции с другим потенциалом.
А когда это хорошо «сделано», то приобретается просто другое звучание и иное сознание.
Следующий пример- это композиция «Because I Love», которая исполнена на уровне Ave Maria – очень и очень нежно. И так композиция за композицией, исполняемые красиво и проникновенно с переживаниями, «переворачивающими» сознание и душу.
И здесь хочется спросить, как можно было играть на уровне «великой четвертки» и оставаться все таки на уровне безвестной команды? Может быть были «оттеснены» или «задавлены» другими музыкальными течениями и направлениями.
Общее:
Релиз замечателен. Поклонники «Веаtles»- это как их зеркало.

Очень признателен тебе, Игорь, за то, что услышал и возможно открыл для себя вот эти прелестные композиции, которыми «бредил» в те годы, да и сейчас тоже.
avatar
Музфан

Сообщения : 163
Дата регистрации : 2010-12-30
Возраст : 60
Откуда : Татарстан

Вернуться к началу Перейти вниз

Re: Majority One - Rainbow Rockin`Chaur

Сообщение  kirill-purple в Вс Янв 30, 2011 4:12 am

Юра,рад,что тебе понравилось.
avatar
kirill-purple

Сообщения : 63
Дата регистрации : 2010-10-14

Вернуться к началу Перейти вниз

Re: Majority One - Rainbow Rockin`Chaur

Сообщение  Спонсируемый контент


Спонсируемый контент


Вернуться к началу Перейти вниз

Вернуться к началу


 
Права доступа к этому форуму:
Вы не можете отвечать на сообщения