Consortium - Rebirth (1975) [2006, Angel Air, SJPCD216]

Перейти вниз

Consortium - Rebirth (1975) [2006, Angel Air, SJPCD216]

Сообщение  bellyfred в Пн Янв 10, 2011 4:01 am


Категория: Album
Исполнитель: Consortium
Название диска: Rebirth
Жанр: psych/prog
Год выпуска: 1975/2006
Количество треков: 11
Время звучания: 52:10
Формат | Качество: flac+cue | lossless
Размер файла: 331 mb + 3%
Коврики: 22 mb/300 dpi
Количество партов: 1
Залито на: rapidshare.com / narod.ru
Источник: my collection



Track Listing:
01 Rebirth
02 It Was You
03 Hold on Tightly
04 It's Up to You
05 It's Not Easy
06 For Me to Forgive
07 Stop (Look at Me)
08 She Gave Life
09 I Want You
10 Time Waits for No Man
11 I'm Dying


Members:
Brian Parker, Mick Ware (vocals, guitar);
Robbie Leggat (vocals);
Ken Brown (bass guitar);
John Parker (drums).








"EAC extraction logfile":
Exact Audio Copy V0.99 prebeta 5 from 4. May 2009

EAC extraction logfile from 9. January 2011, 19:45

Consortium / Rebirth

Used drive : PIONEER DVD-RW DVR-215D Adapter: 4 ID: 0

Read mode : Secure
Utilize accurate stream : Yes
Defeat audio cache : Yes
Make use of C2 pointers : No

Read offset correction : 48
Overread into Lead-In and Lead-Out : No
Fill up missing offset samples with silence : Yes
Delete leading and trailing silent blocks : No
Null samples used in CRC calculations : Yes
Used interface : Native Win32 interface for Win NT & 2000

Used output format : User Defined Encoder
Selected bitrate : 1024 kBit/s
Quality : High
Add ID3 tag : No
Command line compressor : C:\Program Files\Exact Audio Copy\Flac\flac.exe
Additional command line options : -8 -V %s


TOC of the extracted CD

Track | Start | Length | Start sector | End sector
---------------------------------------------------------
1 | 0:00.00 | 3:47.48 | 0 | 17072
2 | 3:47.48 | 4:18.00 | 17073 | 36422
3 | 8:05.48 | 3:16.15 | 36423 | 51137
4 | 11:21.63 | 3:39.44 | 51138 | 67606
5 | 15:01.32 | 4:07.17 | 67607 | 86148
6 | 19:08.49 | 5:57.66 | 86149 | 112989
7 | 25:06.40 | 3:57.22 | 112990 | 130786
8 | 29:03.62 | 8:54.02 | 130787 | 170838
9 | 37:57.64 | 3:03.25 | 170839 | 184588
10 | 41:01.14 | 5:30.23 | 184589 | 209361
11 | 46:31.37 | 5:39.11 | 209362 | 234797


Range status and errors

Selected range

Filename C:\Documents and Settings\валера\Рабочий стол\Consortium - Rebirth (1975).wav

Peak level 96.6 %
Range quality 100.0 %
Test CRC 6D845038
Copy CRC 6D845038
Copy OK

No errors occurred


AccurateRip summary

Track 1 not present in database
Track 2 not present in database
Track 3 not present in database
Track 4 not present in database
Track 5 not present in database
Track 6 not present in database
Track 7 not present in database
Track 8 not present in database
Track 9 not present in database
Track 10 not present in database
Track 11 not present in database

None of the tracks are present in the AccurateRip database

End of status report








"Band":
At the time 'Rebirth' was recorded back in 1975, Consortium were one of the hardest working groups on the circuit. A popular attraction at the packed London venues of this period, the group consisted of experienced musicians who had been familiar faces on the scene for close on a decade playing with various other bands and recording countless sessions. With the onset of the Punk era the band became disillusioned with the music business and so along with the disappointment of being let down by RCA, the album was shelved. Although they have not worked together as a band since 1980, they occasionally get together musically and remain firm friends to this day.




avatar
bellyfred

Сообщения : 91
Дата регистрации : 2009-12-23
Возраст : 54

Вернуться к началу Перейти вниз

Re: Consortium - Rebirth (1975) [2006, Angel Air, SJPCD216]

Сообщение  JonLord в Пн Янв 10, 2011 4:57 am

Спасибо
avatar
JonLord

Сообщения : 17
Дата регистрации : 2010-10-14
Возраст : 57

Вернуться к началу Перейти вниз

Re: Consortium - Rebirth (1975) [2006, Angel Air, SJPCD216]

Сообщение  altep в Вт Янв 11, 2011 12:42 am

Валер, спасибо большое! Достойная Вещь!
avatar
altep

Сообщения : 147
Дата регистрации : 2009-12-13

Вернуться к началу Перейти вниз

Re: Consortium - Rebirth (1975) [2006, Angel Air, SJPCD216]

Сообщение  kirill-purple в Вт Янв 11, 2011 12:48 am

Спасибо большое!
avatar
kirill-purple

Сообщения : 63
Дата регистрации : 2010-10-14

Вернуться к началу Перейти вниз

Re: Consortium - Rebirth (1975) [2006, Angel Air, SJPCD216]

Сообщение  olaf_alien в Вт Янв 11, 2011 12:17 pm

Мне тоже понравилось. Спасибо!!
avatar
olaf_alien
Admin

Сообщения : 286
Дата регистрации : 2009-12-08

Вернуться к началу Перейти вниз

Re: Consortium - Rebirth (1975) [2006, Angel Air, SJPCD216]

Сообщение  fovit в Вт Янв 11, 2011 8:27 pm

И я ознакомился. Спасибо, Валера!
avatar
fovit

Сообщения : 134
Дата регистрации : 2009-12-13

Вернуться к началу Перейти вниз

Re: Consortium - Rebirth (1975) [2006, Angel Air, SJPCD216]

Сообщение  kandron в Вс Фев 13, 2011 4:28 am

Спасибо большое!!!

kandron

Сообщения : 2
Дата регистрации : 2010-06-09

Вернуться к началу Перейти вниз

Re: Consortium - Rebirth (1975) [2006, Angel Air, SJPCD216]

Сообщение  Спонсируемый контент


Спонсируемый контент


Вернуться к началу Перейти вниз

Вернуться к началу


 
Права доступа к этому форуму:
Вы не можете отвечать на сообщения