Ice(UK) - Saga of the Ice King 1979

Перейти вниз

Ice(UK) - Saga of the Ice King 1979

Сообщение  kirill-purple в Сб Дек 04, 2010 7:34 pm

Ice(UK) - Saga of the Ice King 1979



This quintet (derived mostly from Tamworth band Willow) led by ex-Alexis Korner Blues Incorporated singer, Mick Rutherford, was formed in March 1978 and issued their debut concept album a year later, before splitting in 1982. Featuring the Staffordshire Youth Orchestra, with string arrangements by Rutherford, its riven with changes of both mood and tempo, as well as boasting some blaring horns and sweet electric and acoustic guitar from Andy Radek, as highlighted on airy tunes like The Bridge. This LP has been described as the rarest album of 1979.

Страна: UK
Жанр: heavy psych/prog rock
Информация о релизе: LP Storm Records 1979 / CD Kissing Spell (KSCD9596)
Формат: Flac (image+cue+log+scans)
Продолжительность: 31:20
Размер архива: 156mb(+3%recover)
Источник: my CD

Треклист:
01. Early days
02. The Ice King
03. Asgard
04. The bridge
05. The feast
06. Dawn of the battle
07. Aftermath
08. Journey into exile
09. Reprise

Состав:
Mick Rutherford – All vocals (ex-Alexis Korners Blues Incorporated,Genesis,Mike + The Mechanics)
Andy Radek – Acoustic and electric guitars
Colin Richardson – Bass
Steve Sheldon – Drums and percussion
Paul Watts – Acoustic and electric guitars


Спойлер:
Exact Audio Copy V0.99 prebeta 4 from 23. January 2008

Отчёт EAC об извлечении, выполненном 3. декабря 2010, 22:50

Ice / Saga of the Ice King

Дисковод: ASUS DRW-24B1ST Adapter: 3 ID: 0

Режим чтения : Достоверность
Использование точного потока : Да
Отключение кэша аудио : Да
Использование указателей C2 : Нет

Коррекция смещения при чтении : 6
Способность читать области Lead-in и Lead-out : Нет
Заполнение пропущенных сэмплов тишиной : Да
Удаление блоков с тишиной в начале и конце : Нет
При вычислениях CRC использовались нулевые сэмплы : Да
Интерфейс : Встроенный Win32-интерфейс для Win NT/2000

Выходной формат : Пользовательский кодировщик
Выбранный битрейт : 128 kBit/s
Качество : Высокий
Добавление ID3-тэга : Нет
Утилита сжатия : C:\Program Files\Exact Audio Copy\FLAC\FLAC.EXE
Дополнительные параметры : -8 -V %s


TOC извлечённого CD

Трек | Старт | Длительность | Начальный сектор | Конечный сектор
---------------------------------------------------------------------
1 | 0:00.33 | 3:15.00 | 33 | 14657
2 | 3:15.33 | 3:24.00 | 14658 | 29957
3 | 6:39.33 | 6:32.10 | 29958 | 59367
4 | 13:11.43 | 3:32.37 | 59368 | 75304
5 | 16:44.05 | 3:05.65 | 75305 | 89244
6 | 19:49.70 | 5:20.50 | 89245 | 113294
7 | 25:10.45 | 1:01.53 | 113295 | 117922
8 | 26:12.23 | 2:23.52 | 117923 | 128699
9 | 28:36.00 | 2:44.33 | 128700 | 141032


Характеристики диапазона извлечения и сообщения об ошибках

Выбранный диапазон

Имя файла C:\Torrent\purple\Ice - Saga of the Ice King.wav

Пиковый уровень 97.2 %
Качество диапазона 100.0 %
CRC теста 7681812E
CRC копии 7681812E
Копирование... OK

Ошибок не произошло


AccurateRip: сводка

Трек 1 нет в базе данных
Трек 2 нет в базе данных
Трек 3 нет в базе данных
Трек 4 нет в базе данных
Трек 5 нет в базе данных
Трек 6 нет в базе данных
Трек 7 нет в базе данных
Трек 8 нет в базе данных
Трек 9 нет в базе данных

Ни одного трека нет в базе AccurateRip

Конец отчёта

P.S. - качество записи этого альбома оставляет желать лучшего...но лучшего нет.

Код:
http://www.megaupload.com/?d=JD5HF9LP


http://narod.ru/disk/789519001/I(UK)-SotIK.rar.html
avatar
kirill-purple

Сообщения : 63
Дата регистрации : 2010-10-14

Вернуться к началу Перейти вниз

Re: Ice(UK) - Saga of the Ice King 1979

Сообщение  olaf_alien в Вс Дек 05, 2010 5:39 am

Спасибо!! Что-то они слукавили, написав, что использовали последние компьютерные технологии в ремастировании 2
А картина в оригинале выглядет так:

avatar
olaf_alien
Admin

Сообщения : 286
Дата регистрации : 2009-12-08

Вернуться к началу Перейти вниз

Re: Ice(UK) - Saga of the Ice King 1979

Сообщение  kirill-purple в Вс Дек 05, 2010 5:52 am

Да,по-ходу,вообще никаких технологий в ремастировании не использовалось.

А картина в оригинале - поинтереснее будет.
avatar
kirill-purple

Сообщения : 63
Дата регистрации : 2010-10-14

Вернуться к началу Перейти вниз

Re: Ice(UK) - Saga of the Ice King 1979

Сообщение  bellyfred в Вс Дек 05, 2010 4:04 pm

спасибо! взято!
avatar
bellyfred

Сообщения : 91
Дата регистрации : 2009-12-23
Возраст : 54

Вернуться к началу Перейти вниз

Re: Ice(UK) - Saga of the Ice King 1979

Сообщение  altep в Вс Дек 05, 2010 7:04 pm

Спасибо! Интересный альбом, качество конечно же не на высоте, то тем не менее достойная штука.
avatar
altep

Сообщения : 147
Дата регистрации : 2009-12-13

Вернуться к началу Перейти вниз

Re: Ice(UK) - Saga of the Ice King 1979

Сообщение  Спонсируемый контент


Спонсируемый контент


Вернуться к началу Перейти вниз

Вернуться к началу


 
Права доступа к этому форуму:
Вы не можете отвечать на сообщения