Mick Farren - MONA(THE CARNIVOROUS CIRCUs) 1970

Перейти вниз

Mick Farren - MONA(THE CARNIVOROUS CIRCUs) 1970

Сообщение  kirill-purple в Вс Ноя 07, 2010 1:55 am

Mick Farren - MONA(THE CARNIVOROUS CIRCUs) 1970
(1999 Japanese issue 5-track CD album by ex The Deviants vocalist originally released in 1970, featuring an interview with a Hells Angel, Steve Took recounting time he spent in Ashford Remand Centre andrecordings of political speeches).




Originally released in 1970, but this was virtually the Deviant's fourth record, I've heard a few say. Very good British psychedelic, I thought. This is one of those CD's I could play twice a day when I'm in the right mood. Tunes I thought made the grade are the fifteen-minute "Carnivorous Circus, Part 1", their decent cover of Eddie Cochran's classic "Summertime Blues" and the two-part composition of Bo Diddley's "Mona". Check out this line-up: Mick Farren-vocals, Steve Hammond-guitar, Victor Brox-bass, Steve Peregrine Took-bass and Twink-drums. If you liked the Deviant's first three lp's, you should enjoy this title.

Страна: UK
Жанр: psych-prog rock
Информация о релизе: CD Captain Trip Records (CTCD-175) Japan 1999
Формат: Flac (image+cue+log+scans)
Продолжительность: 41:54
Размер архива: 269mb(+5%recover)
Источник: my CD


Songs / Tracks Listing

1. Mona (A Fragment)
2. Carnivorous Circus, Pt. 1
3. Summertime Blues
4. Carnivorous Circus, Pt. 2
5. Mona (The Whole Trip)

Line-up / Musicians

- Mick Farren / vocals, main performer
- Steve Peregrine Took / bass
- Twink / drums
- Victor Brox / keyboards
- Paul Buckmaster / Cello
- John Gustafson / bass
- Steve Hammond / guitar
- Frank Newbold / ?

Спойлер:
Exact Audio Copy V0.99 prebeta 4 from 23. January 2008

Отчёт EAC об извлечении, выполненном 6. ноября 2010, 19:31

MICK FARREN / MONA(THE CARNIVOROUS CIRCUS)

Дисковод: ASUS DRW-24B1ST Adapter: 3 ID: 0

Режим чтения : Достоверность
Использование точного потока : Да
Отключение кэша аудио : Да
Использование указателей C2 : Нет

Коррекция смещения при чтении : 6
Способность читать области Lead-in и Lead-out : Нет
Заполнение пропущенных сэмплов тишиной : Да
Удаление блоков с тишиной в начале и конце : Нет
При вычислениях CRC использовались нулевые сэмплы : Да
Интерфейс : Встроенный Win32-интерфейс для Win NT/2000

Выходной формат : Пользовательский кодировщик
Выбранный битрейт : 128 kBit/s
Качество : Высокий
Добавление ID3-тэга : Нет
Утилита сжатия : C:\Program Files\Exact Audio Copy\FLAC\FLAC.EXE
Дополнительные параметры : -8 -V %s


TOC извлечённого CD

Трек | Старт | Длительность | Начальный сектор | Конечный сектор
---------------------------------------------------------------------
1 | 0:00.00 | 3:15.57 | 0 | 14681
2 | 3:15.57 | 15:23.43 | 14682 | 83949
3 | 18:39.25 | 2:41.29 | 83950 | 96053
4 | 21:20.54 | 13:04.53 | 96054 | 154906
5 | 34:25.32 | 7:29.40 | 154907 | 188621


Характеристики диапазона извлечения и сообщения об ошибках

Выбранный диапазон

Имя файла C:\Torrent\purple\MICK FARREN - MONA(THE CARNIVOROUS CIRCUS).wav

Пиковый уровень 98.8 %
Качество диапазона 100.0 %
CRC теста 7604879C
CRC копии 7604879C
Копирование... OK

Ошибок не произошло


AccurateRip: сводка

Трек 1 нет в базе данных
Трек 2 нет в базе данных
Трек 3 нет в базе данных
Трек 4 нет в базе данных
Трек 5 нет в базе данных

Ни одного трека нет в базе AccurateRip

Конец отчёта

Код:
http://ifolder.ru/20138264
avatar
kirill-purple

Сообщения : 63
Дата регистрации : 2010-10-14

Вернуться к началу Перейти вниз

Вернуться к началу


 
Права доступа к этому форуму:
Вы не можете отвечать на сообщения