Hardin & York "Tomorrow Today" 1969

Перейти вниз

Hardin & York "Tomorrow Today" 1969

Сообщение  altep в Вт Окт 05, 2010 2:38 am

Hardin & York "Tomorrow Today" 1969



Album: "Tomorrow Today"
Year: 1969
Genre: Rock
Style: Rock
Format: APE+CUE+LOG+Cover+3%
Size: 351mb
Label: Repertoire Records REP 4481-WY
Source: CD

Log:
Спойлер:
Exact Audio Copy V0.99 prebeta 5 from 4. May 2009

EAC Auslese-Logdatei vom 17. September 2010, 19:02

Hardin & York / Tomorrow Today

Benutztes Laufwerk : HL-DT-STDVDRAM GSA-H10A Adapter: 0 ID: 0

Lesemodus : Sicher
Benutze Accurate Stream : Ja
Audio Puffer abgeschaltet : Ja
Benutze C2 Fehlerinformationen : Nein

Leseoffset Korrektur : 667
Ьberlesen in das Lead-In und Lead-Out : Nein
Fьlle fehlende Offsetsample mit Stille auf : Ja
Lцsche fьhrende und nachfolgende stille Blцcke : Nein
Null Samples gehen in CRC Berechnungen ein : Nein
Benutzte Schnittstelle : Natьrliche Win32 Schnittstelle fьr Win NT/2000/XP

Benutztes Ausgabeformat : Interne WAV Routinen
Sampleformat : 44.100 Hz; 16 Bit; Stereo


TOC der ausgelesenen CD

Track | Start | Lдnge | Startsektor | Endsektor
-------------------------------------------------------
1 | 0:00.00 | 3:32.67 | 0 | 15966
2 | 3:32.67 | 2:43.53 | 15967 | 28244
3 | 6:16.45 | 8:21.30 | 28245 | 65849
4 | 14:38.00 | 4:40.55 | 65850 | 86904
5 | 19:18.55 | 4:33.27 | 86905 | 107406
6 | 23:52.07 | 2:32.03 | 107407 | 118809
7 | 26:24.10 | 6:42.65 | 118810 | 149024
8 | 33:07.00 | 6:19.10 | 149025 | 177459
9 | 39:26.10 | 4:05.35 | 177460 | 195869
10 | 43:31.45 | 4:48.55 | 195870 | 217524
11 | 48:20.25 | 7:08.35 | 217525 | 249659
12 | 55:28.60 | 3:39.15 | 249660 | 266099


Bereichsstatus und Fehler

Gewдhlter Bereich

Dateiname C:\Dokumente und Einstellungen\Alex\Desktop\Hardin & York - Tomorrow Today.wav

Spitzenpegel 98.4 %
Bereichsqualitдt 100.0 %
Kopie CRC F609E653
Kopie OK

Keine Fehler aufgetreten


AccurateRip Ьbersicht

Track 1 kann nicht als akkurat verifiziert werden (Zuversicht 1) [B35219F4], AccurateRip lieferte [16B85409]
Track 2 kann nicht als akkurat verifiziert werden (Zuversicht 1) [2E8555CC], AccurateRip lieferte [0734ADEB]
Track 3 kann nicht als akkurat verifiziert werden (Zuversicht 1) [40C4FCD2], AccurateRip lieferte [1A092766]
Track 4 kann nicht als akkurat verifiziert werden (Zuversicht 1) [B3C8AF8C], AccurateRip lieferte [4FCF0BD4]
Track 5 kann nicht als akkurat verifiziert werden (Zuversicht 1) [4673FDD9], AccurateRip lieferte [D5B1AA05]
Track 6 kann nicht als akkurat verifiziert werden (Zuversicht 1) [28E64EC1], AccurateRip lieferte [F4DA4050]
Track 7 kann nicht als akkurat verifiziert werden (Zuversicht 1) [C12AB2D3], AccurateRip lieferte [BE46F2C5]
Track 8 kann nicht als akkurat verifiziert werden (Zuversicht 1) [D8DF4D50], AccurateRip lieferte [51FB234F]
Track 9 kann nicht als akkurat verifiziert werden (Zuversicht 1) [8C32D0F5], AccurateRip lieferte [800D711F]
Track 10 kann nicht als akkurat verifiziert werden (Zuversicht 1) [FD153AD8], AccurateRip lieferte [75A35685]
Track 11 kann nicht als akkurat verifiziert werden (Zuversicht 1) [A0475DA0], AccurateRip lieferte [2E613476]
Track 12 kann nicht als akkurat verifiziert werden (Zuversicht 1) [84F6F8E5], AccurateRip lieferte [54F97520]

Kein Track konnte als akkurat verifiziert werden
Es kцnnte sich um eine andere Pressung als von der in der Datenbank vorhandenen handeln

Ende des Statusreports

Track Listings:

1. Tomorrow today
2. 100 years from now
3. I'm lost
4. Drinking my wine
5. Candlelight
6. Beautiful day
7. Mountains of sand
8. Can't keep a good man down
9. Listen everyone

Additional Tracks:
10. Tomorrow today
11. The pike
12. Parking meters



Код:
http://narod.ru/disk/25015698000/HaYo_69.rar.html

pass: huli-gan
avatar
altep

Сообщения : 147
Дата регистрации : 2009-12-13

Вернуться к началу Перейти вниз

Re: Hardin & York "Tomorrow Today" 1969

Сообщение  Музфан в Вс Май 01, 2011 3:57 pm

Вот эту команду не слышал. Ну что же будем знакомиться.)))
С уважением.
avatar
Музфан

Сообщения : 163
Дата регистрации : 2010-12-30
Возраст : 60
Откуда : Татарстан

Вернуться к началу Перейти вниз

Вернуться к началу


 
Права доступа к этому форуму:
Вы не можете отвечать на сообщения